Ir ao conteúdo
  • Comunicados

    • Gabriel Torres

      Seja um moderador do Clube do Hardware!   12-02-2016

      Prezados membros do Clube do Hardware, Está aberto o processo de seleção de novos moderadores para diversos setores ou áreas do Clube do Hardware. Os requisitos são:   Pelo menos 500 posts e um ano de cadastro; Boa frequência de participação; Ser respeitoso, cordial e educado com os demais membros; Ter bom nível de português; Ter razoável conhecimento da área em que pretende atuar; Saber trabalhar em equipe (com os moderadores, coordenadores e administradores).   Os interessados deverão enviar uma mensagem privada para o usuário @Equipe Clube do Hardware com o título "Candidato a moderador". A mensagem deverá conter respostas às perguntas abaixo:   Qual o seu nome completo? Qual sua data de nascimento? Qual sua formação/profissão? Já atuou como moderador em algo outro fórum, se sim, qual? De forma sucinta, explique o porquê de querer ser moderador do fórum e conte-nos um pouco sobre você.   OBS: Não se trata de função remunerada. Todos que fazem parte do staff são voluntários.
chico24628

Arquivo inválido TV LG

Recommended Posts

chico24628    14

Oi pessoal, tudo bom?
Então, eu tenho uma TV LG (26lk300) e hoje quando tentei assistir um filme nela (pelo pendrive) o arquivo era inválido, no entanto ontem assisti um filme com características idênticas e não tive problema, segue os Detalhes dos Arquivos
ARQUIVO "INVÁLIDO":
 

General
Complete name                    : D:\Olhos da Justiça 
Format                           : MPEG-4
Format profile                   : Base Media
Codec ID                         : isom
File size                        : 2.08 GiB
Duration                         : 1h 51mn
Overall bit rate                 : 2 672 Kbps
Writing application              : Lavf56.32.100

Video
ID                               : 1
Format                           : AVC
Format/Info                      : Advanced Video Codec
Format profile                   : High@L4.1
Format settings, CABAC           : Yes
Format settings, ReFrames        : 5 frames
Codec ID                         : avc1
Codec ID/Info                    : Advanced Video Coding
Duration                         : 1h 51mn
Bit rate mode                    : Variable
Bit rate                         : 2 507 Kbps
Width                            : 1 920 pixels
Height                           : 800 pixels
Display aspect ratio             : 2.40:1
Frame rate mode                  : Variable
Frame rate                       : 23.976 fps
Minimum frame rate               : 23.564 fps
Maximum frame rate               : 24.390 fps
Color space                      : YUV
Chroma subsampling               : 4:2:0
Bit depth                        : 8 bits
Scan type                        : Progressive
Bits/(Pixel*Frame)               : 0.068
Stream size                      : 1.95 GiB (94%)
Writing library                  : x264 core 146 r2538 121396c
Encoding settings                : cabac=1 / ref=5 / deblock=1:0:0 / analyse=0x3:0x133 / me=umh / subme=10 / psy=1 / psy_rd=1.00:0.00 / mixed_ref=1 / me_range=24 / chroma_me=1 / trellis=2 / 8x8dct=1 / cqm=0 / deadzone=21,11 / fast_pskip=1 / chroma_qp_offset=-2 / threads=60 / lookahead_threads=6 / sliced_threads=0 / nr=0 / decimate=1 / interlaced=0 / bluray_compat=0 / constrained_intra=0 / bframes=6 / b_pyramid=2 / b_adapt=2 / b_bias=0 / direct=3 / weightb=1 / open_gop=0 / weightp=2 / keyint=240 / keyint_min=23 / scenecut=40 / intra_refresh=0 / rc_lookahead=60 / rc=2pass / mbtree=1 / bitrate=2507 / ratetol=1.0 / qcomp=0.60 / qpmin=10 / qpmax=51 / qpstep=4 / cplxblur=20.0 / qblur=0.5 / vbv_maxrate=62500 / vbv_bufsize=78125 / nal_hrd=none / filler=0 / ip_ratio=1.40 / aq=1:1.00

Audio
ID                               : 2
Format                           : AAC
Format/Info                      : Advanced Audio Codec
Format profile                   : LC
Codec ID                         : 40
Duration                         : 1h 51mn
Bit rate mode                    : Constant
Bit rate                         : 159 Kbps
Channel(s)                       : 2 channels
Channel positions                : Front: L R
Sampling rate                    : 48.0 KHz
Compression mode                 : Lossy
Stream size                      : 127 MiB (6%)
Language                         : Portuguese


ARQUIVO QUE FUNCIONOU:
 

General
Complete name                    : D:\Rua Cloverfield, 10 (2016) 
Format                           : MPEG-4
Format profile                   : Base Media
Codec ID                         : isom
File size                        : 2.12 GiB
Duration                         : 1h 43mn
Overall bit rate                 : 2 934 Kbps
Movie name                       : Rua Cloverfield, 10 

Video
ID                               : 1
Format                           : AVC
Format/Info                      : Advanced Video Codec
Format profile                   : High@L4.1
Format settings, CABAC           : Yes
Format settings, ReFrames        : 4 frames
Codec ID                         : avc1
Codec ID/Info                    : Advanced Video Coding
Duration                         : 1h 43mn
Bit rate mode                    : Variable
Bit rate                         : 2 500 Kbps
Width                            : 1 920 pixels
Height                           : 800 pixels
Display aspect ratio             : 2.40:1
Frame rate mode                  : Variable
Frame rate                       : 23.976 fps
Minimum frame rate               : 23.564 fps
Maximum frame rate               : 24.390 fps
Color space                      : YUV
Chroma subsampling               : 4:2:0
Bit depth                        : 8 bits
Scan type                        : Progressive
Bits/(Pixel*Frame)               : 0.068
Stream size                      : 1.81 GiB (85%)
Writing library                  : x264 core 148 r2597M e86f3a1
Encoding settings                : cabac=1 / ref=4 / deblock=1:-1:-1 / analyse=0x3:0x113 / me=umh / subme=9 / psy=1 / psy_rd=1.00:0.15 / mixed_ref=1 / me_range=24 / chroma_me=1 / trellis=2 / 8x8dct=1 / cqm=0 / deadzone=21,11 / fast_pskip=1 / chroma_qp_offset=-3 / threads=32 / lookahead_threads=4 / sliced_threads=0 / nr=0 / decimate=1 / interlaced=0 / bluray_compat=0 / constrained_intra=0 / bframes=3 / b_pyramid=2 / b_adapt=2 / b_bias=0 / direct=3 / weightb=1 / open_gop=0 / weightp=2 / keyint=250 / keyint_min=25 / scenecut=40 / intra_refresh=0 / rc_lookahead=50 / rc=2pass / mbtree=1 / bitrate=2500 / ratetol=1.0 / qcomp=0.60 / qpmin=0 / qpmax=69 / qpstep=4 / cplxblur=20.0 / qblur=0.5 / vbv_maxrate=31250 / vbv_bufsize=31250 / nal_hrd=none / filler=0 / ip_ratio=1.40 / aq=3:1.00

Audio
ID                               : 2
Format                           : AAC
Format/Info                      : Advanced Audio Codec
Format profile                   : LC
Codec ID                         : 40
Duration                         : 1h 43mn
Bit rate mode                    : Constant
Bit rate                         : 427 Kbps
Channel(s)                       : 6 channels
Channel positions                : Front: L C R, Side: L R, LFE
Sampling rate                    : 48.0 KHz
Compression mode                 : Lossy
Stream size                      : 316 MiB (15%)
Language                         : Portuguese


Qual o problema e como resolver?
Desde já, agradeço.

Compartilhar este post


Link para o post
Compartilhar em outros sites
sisle1    84

Olá.

 

Dê uma lida em:

Mais atenção aos posts #11+

 

Tem essa aula: http://www.elitedosblurays.com/incompatibilidade-de-arquivo-mkv-com-tv-lcdled-video-aula/

 

Tamanho: 40 Mb,Formato: MKV, Autor: Bleidinho
Descrição: "Olá galera, tudo na paz?? Trago essa aula na intenção de ajudar alguns que teve esse mesmo problema, galera que baixa os filmes MKV em que as vezes não são possíveis de assistir na TV LCD através do USB, a maioria das vezes o problema é os Codecs de áudio. Pelo que ví, a maioria das TV’s apresentam esse mesmo problema, pois aí está um jeitinho de livrar-se. Atenção:  É preciso o net frameworks para poder instalar o programa Rebox.net."

 

Tem alguma informação no campo de comentários também. ;)

 

Abraço

  • Curtir 1

Compartilhar este post


Link para o post
Compartilhar em outros sites
chico24628    14
  • Autor do tópico
  • Deu uma lida, mas o problema dele é bastante diferente do meu, o vídeo se refere à vídeos em formato MKV, que não são os meus no caso...

    Compartilhar este post


    Link para o post
    Compartilhar em outros sites
    sisle1    84

    Geralmente o problema é com o codec de áudio (não apenas com arquivos .mkv), tentou a conversão sugerida? Quais os resultados?

    Compartilhar este post


    Link para o post
    Compartilhar em outros sites

    Crie uma conta ou entre para comentar

    Você precisar ser um membro para fazer um comentário






    Sobre o Clube do Hardware

    No ar desde 1996, o Clube do Hardware é uma das maiores, mais antigas e mais respeitadas publicações sobre tecnologia do Brasil. Leia mais

    Direitos autorais

    Não permitimos a cópia ou reprodução do conteúdo do nosso site, fórum, newsletters e redes sociais, mesmo citando-se a fonte. Leia mais

    ×