Ir ao conteúdo
  • Cadastre-se

Arquivo MKV em Samsung Es6500


jeffsolutions

Posts recomendados

Olá, boa tarde.

Estou tentando executar este arquivo na minha Tv porém sem sucesso. Diz que o arquivo não é suportado no momento enquanto outros MKV rodam normalmente.

General

Format : Matroska

Format version : Version 2

File size : 11.7 GiB

Duration : 2h 41mn

Overall bit rate mode : Variable

Overall bit rate : 10.3 Mbps

Movie name : RED_BIRD_3D_WW.Title852.Bluray3DRip

Encoded date : UTC 2011-11-18 20:29:31

Writing application : DVDFab

Writing library : libebml v0.7.8 + libmatroska v0.8.1

Video

ID : 1

Format : AVC

Format/Info : Advanced Video Codec

Format profile : [email protected]

Format settings, CABAC : Yes

Format settings, ReFrames : 2 frames

Codec ID : V_MPEG4/ISO/AVC

Duration : 2h 41mn

Bit rate mode : Variable

Bit rate : 9 796 Kbps

Maximum bit rate : 15.0 Mbps

Width : 1 920 pixels

Height : 1 080 pixels

Display aspect ratio : 16:9

Frame rate mode : Constant

Frame rate : 23.976 fps

Color space : YUV

Chroma subsampling : 4:2:0

Bit depth : 8 bits

Scan type : Progressive

Bits/(Pixel*Frame) : 0.197

Stream size : 11.1 GiB (95%)

Default : Yes

Forced : No

Audio

ID : 2

Format : AC-3

Format/Info : Audio Coding 3

Mode extension : CM (complete main)

Format settings, Endianness : Big

Codec ID : A_AC3

Duration : 2h 41mn

Bit rate mode : Constant

Bit rate : 320 Kbps

Channel(s) : 6 channels

Channel positions : Front: L C R, Side: L R, LFE

Sampling rate : 48.0 KHz

Bit depth : 16 bits

Compression mode : Lossy

Stream size : 370 MiB (3%)

Default : Yes

Forced : No

Link para o comentário
Compartilhar em outros sites

Arquivado

Este tópico foi arquivado e está fechado para novas respostas.

Sobre o Clube do Hardware

No ar desde 1996, o Clube do Hardware é uma das maiores, mais antigas e mais respeitadas comunidades sobre tecnologia do Brasil. Leia mais

Direitos autorais

Não permitimos a cópia ou reprodução do conteúdo do nosso site, fórum, newsletters e redes sociais, mesmo citando-se a fonte. Leia mais

×
×
  • Criar novo...

APRENDA A MONTAR COMPUTADORES!

montagem2022-capa-peq.jpg

 

CLIQUE AQUI E BAIXE AGORA MESMO!