Ir ao conteúdo
  • Comunicados

    • Gabriel Torres

      Seja um moderador do Clube do Hardware!   12-02-2016

      Prezados membros do Clube do Hardware, Está aberto o processo de seleção de novos moderadores para diversos setores ou áreas do Clube do Hardware. Os requisitos são:   Pelo menos 500 posts e um ano de cadastro; Boa frequência de participação; Ser respeitoso, cordial e educado com os demais membros; Ter bom nível de português; Ter razoável conhecimento da área em que pretende atuar; Saber trabalhar em equipe (com os moderadores, coordenadores e administradores).   Os interessados deverão enviar uma mensagem privada para o usuário @Equipe Clube do Hardware com o título "Candidato a moderador". A mensagem deverá conter respostas às perguntas abaixo:   Qual o seu nome completo? Qual sua data de nascimento? Qual sua formação/profissão? Já atuou como moderador em algo outro fórum, se sim, qual? De forma sucinta, explique o porquê de querer ser moderador do fórum e conte-nos um pouco sobre você.   OBS: Não se trata de função remunerada. Todos que fazem parte do staff são voluntários.
Entre para seguir isso  
mcorax

Converter RMVB para AVI sem perder qualidade.

Recommended Posts

mcorax    1

Tem como converter de RMVB para AVI sem perder qualidade do vídeo original? É que já testei sei la eu quantos conversores de video, e não consigo resultado igual ou próximo do vídeo de origem. Sempre a qualidade fica muito ruim.

Aqui estão dados de um video em RMVB que tentei converter para AVI:

Video

ID : 1

Format : RealVideo 4

Codec ID : RV40

Codec ID/Info : Based on AVC (H.264), Real Player 9

Duration : 48mn 45s

Bit rate : 383 Kbps

Width : 624 pixels

Height : 352 pixels

Display aspect ratio : 16:9

Frame rate : 23.000 fps

Bits/(Pixel*Frame) : 0.076

Stream size : 134 MiB (84%)

Audio

ID : 0

Format : Cooker

Codec ID : cook

Codec ID/Info : Based on G.722.1, Real Player 6

Duration : 48mn 45s

Bit rate : 64.1 Kbps

Channel(s) : 2 channels

Sampling rate : 44.1 KHz

Bit depth : 16 bits

Stream size : 22.4 MiB (14%)

Tentei deixar as mesmas especificações no SUPER, mas não tem jeito.

Alguém saque que especificações usar para ter um video não quadriculado ou travando?

Até o audio ficou podre, no SUPER.

Se alguém souber de outro conversor, aceito dicas.

Obrigado.

Compartilhar este post


Link para o post
Compartilhar em outros sites
mcorax    1
  • Autor do tópico
  • Pelo jeito ninguém soube esclarecer essa dúvida, mas como imagino que mais alguém pode entrar neste tópico devido ao mesmo problema, vou postar a solução que encontrei.

    Depois de setar quinhentas formas diferentes de vídeo e nada dar certo na conversão RMVB->AVI, finalmente achei um programinha leve e milagroso. É o Ultra RM Converter. Ainda não consegui o que eu queria, que era manter a mesma qualidade do arquivo original, mas com esse programa chegou muito próximo disso.

    Então, fica aí a dica.

    Compartilhar este post


    Link para o post
    Compartilhar em outros sites

    Crie uma conta ou entre para comentar

    Você precisar ser um membro para fazer um comentário

    Entre para seguir isso  





    Sobre o Clube do Hardware

    No ar desde 1996, o Clube do Hardware é uma das maiores, mais antigas e mais respeitadas publicações sobre tecnologia do Brasil. Leia mais

    Direitos autorais

    Não permitimos a cópia ou reprodução do conteúdo do nosso site, fórum, newsletters e redes sociais, mesmo citando-se a fonte. Leia mais

    ×